Try Our New BETA Version
GO
(navigation image)
Home Audio Books & Poetry | Community Audio | Computers & Technology | Grateful Dead | Live Music Archive | Music, Arts & Culture | Netlabels | News & Public Affairs | Non-English Audio | Podcasts | Radio Programs | Spirituality & Religion
Search: Advanced Search
Anonymous User (login or join us)
Upload

Listen to audio

item image
Run time: 1:25:49

Stream (help[help])

VBR M3U
MP3 via M3U

Play / Download (help[help])

VBR ZIP

Ogg Vorbis

Lossless zip


All Files: HTTPS Torrent (2/0)

Resources

Bookmark

DawesDawes Live at Turner Hall Ballroom on 2010-11-13 (November 13, 2010)

something has gone horribly wrong 8-p
Prefer flash? · Embed · Questions/Feedback?


Collection: Dawes
Band/Artist: Dawes
Date: November 13, 2010 (check for other copies)
Venue: Turner Hall Ballroom
Location: Milwaukee WI

Source: AUD: KM140’s > MV100 > PCM-M10 > WAV @24/48 SBD: Midas XL3 > Tascam US-144 > RCA outputs > M-Audio Microtrack II > WAV @24/48
Lineage: WAV's > Digital Performer 4 > WAV > Audacity 1.3.12 > WAV's > xACT 2.06 > FLAC level 8 @24/48
Taped by: morst
Transferred by: morst & digitalist0ne
Keywords: 24-bit high resolution version - NOT for CD burning; Live Concert


Description

01. My Girl To Me
02. When You Call My Name
03. If I Wanted Someone
04. That Western Skyline
05. My Way Back Home
06. God Rest My Soul
07. Bedside Manner
08. Moon In The Water
09. How Far We've Come
10. Love Is All I Am
11. Peace In The Valley
12. Fire Away
13. When My Time Comes
14. A Little Bit Of Everything
15. If You Let Me Be Your Anchor

Notes

HD Videos by morst, with good audio from this version:




Moon In The Water
video at H264 (27 MB)
P2650889-AudioFixed_000027.jpg
Moon In The Water
video in HD (567 MB)
P2650889-AudioFixed.gif

Dawes, with The Romany Rye and Moondoggies

Moondoggies - http://www.archive.org/details/Moondoggies2010-11-13.matrix2448

Source:
AUD: KM140’s > MV100 > PCM-M10 > WAV @24/48
SBD: Midas XL3 > Tascam US-144 > RCA outputs > M-Audio Microtrack II > WAV @24/48

Transfer: WAV's > Digital Performer 4 > WAV > Audacity 1.3.12 > WAV's > xACT 2.06 > FLAC level 8 @24/48

FoH: Jeremy (Turner Hall)
Recording: morst
Mix: morst & Digitalist0ne
Transfer: morst

SHNTOOL:
length expanded size cdr WAVE problems fmt ratio filename
6:08.103 106013738 B cxx -- ---xx flac 0.7059 Dawes2010-11-13-2448t01.flac
4:31.816 78282998 B cxx -- ---xx flac 0.6909 Dawes2010-11-13-2448t02.flac
4:53.577 84550268 B cxx -- ---xx flac 0.6775 Dawes2010-11-13-2448t03.flac
6:26.460 111300392 B cxx -- ---xx flac 0.6450 Dawes2010-11-13-2448t04.flac
6:49.144 117833444 B cxx -- ---xx flac 0.6498 Dawes2010-11-13-2448t05.flac
4:49.473 83368136 B cxx -- ---xx flac 0.6889 Dawes2010-11-13-2448t06.flac
4:38.160 80110070 B cxx -- ---xx flac 0.6538 Dawes2010-11-13-2448t07.flac
4:15.823 73677092 B cxx -- ---xx flac 0.6042 Dawes2010-11-13-2448t08.flac
3:22.107 58206746 B cxx -- ---xx flac 0.6764 Dawes2010-11-13-2448t09.flac
5:58.317 103195256 B cxx -- ---xx flac 0.6173 Dawes2010-11-13-2448t10.flac
9:41.126 167364302 B cxx -- ---xx flac 0.6456 Dawes2010-11-13-2448t11.flac
7:01.981 121530494 B cxx -- ---xx flac 0.6617 Dawes2010-11-13-2448t12.flac
6:19.388 109263770 B cxx -- ---xx flac 0.6434 Dawes2010-11-13-2448t13.flac
6:33.658 113373560 B cxx -- ---xx flac 0.6246 Dawes2010-11-13-2448t14.flac
4:19.136 74631230 B cxx -- ---xx flac 0.6414 Dawes2010-11-13-2448t15.flac
85:48.267 1482701496 B 0.6538 (15 files)

~=~=~=~=~=~=~=~=~=~=~=~=~=~=~=~=~=~=~=~=~=~=~=~=~
The Soundscape Preservation Society (Founded 1991)
http://www.iamtypingwithonefinger.com/SPS.html
~=~=~=~=~=~=~=~=~=~=~=~=~=~=~=~=~=~=~=~=~=~=~=~=~

Individual Files

Whole Item FormatSize
[generated M3U] M3U Stream 
[generated VBR MP3 ZIP] VBR MP3 ZIP Stream 
Audio Files 24bit Flac VBR MP3 Ogg Vorbis PNG Flac FingerPrint Checksums
My Girl To Me 71.4 MB 
8.6 MB 
3.9 MB 
10.5 KB 
When You Call My Name 51.6 MB 
6.1 MB 
2.9 MB 
10.6 KB 
If I Wanted Someone 54.6 MB 
6.8 MB 
3.1 MB 
10.9 KB 
That Western Skyline 68.5 MB 
8.6 MB 
4.0 MB 
10.3 KB 
My Way Back Home 73.0 MB 
9.4 MB 
4.2 MB 
10.6 KB 
God Rest My Soul 54.8 MB 
6.6 MB 
3.0 MB 
10.2 KB 
Bedside Manner 49.9 MB 
6.3 MB 
2.9 MB 
10.3 KB 
Moon In The Water 42.5 MB 
5.7 MB 
2.6 MB 
10.1 KB 
How Far We've Come 37.5 MB 
4.7 MB 
2.1 MB 
10.3 KB 
Love Is All I Am 60.7 MB 
8.0 MB 
3.6 MB 
9.8 KB 
Peace In The Valley 103.1 MB 
13.4 MB 
6.1 MB 
9.8 KB 
Fire Away 76.7 MB 
9.6 MB 
4.4 MB 
10.5 KB 
When My Time Comes 67.0 MB 
8.6 MB 
4.0 MB 
9.8 KB 
A Little Bit Of Everything 67.5 MB 
8.5 MB 
4.0 MB 
9.5 KB 
If You Let Me Be Your Anchor 45.7 MB 
5.7 MB 
2.6 MB 
10.4 KB 
930.0 B 
945.0 B 
Movie Files Thumbnail QuickTime Animated GIF h.264 Ogg Video
Moon In The Water 3.9 KB 
567.4 MB 
83.8 KB 
26.3 MB 
19.7 MB 
Image Files JPEG JPEG Thumb
P2660179.JPG 419.3 KB 
4.4 KB 
Information FormatSize
Dawes2010-11-13-FLAC2448.ffp Flac FingerPrint 1,002.0 B 
Dawes2010-11-13-FLAC2448.md5 Checksums 1,013.0 B 
Dawes2010-11-13.matrix2448_files.xml Metadata [file] 
Dawes2010-11-13.matrix2448_meta.xml Metadata 5.2 KB 
Other Files Text Archive BitTorrent
Dawes2010-11-13-info.txt 2.5 KB 
Dawes2010-11-13.matrix2448_archive.torrent 47.4 KB 

Be the first to write a review
Downloaded 1,390 times
Reviews


Terms of Use (31 Dec 2014)